[SACD-R][OF] Шостакович / Shostakovich Complete String Quartets, Vol.4 (Mandelring Quartett) - 2008 (Classical/Chamber/Strings)


Статистика раздачи
Размер: 3.42 ГБ | Добавлен: 20 окт 2019, 10:28 | Скачали: 2
Сидеров: 10  [0 байт/сек]    Личеров: 4  [0 байт/сек]

Сообщение Гость » 20 окт 2019, 10:28

Шостакович / Shostakovich
Complete String Quartets, Vol.4

Mandelring Quartett

Формат записи/Источник записи: [SACD-R][OF]
Наличие водяных знаков: Нет
Год издания/переиздания диска: 2008
Жанр: Classical/Chamber/Strings
Издатель (лейбл): Audite
Продолжительность: 01:15:34
Наличие сканов в содержимом раздачи: Только обложка альбома
Треклист:
String Quartet No. 10 In A Flat Major, Op. 118. (23:42)
1. Andante. 4:10
2. Allegretto Furioso. 3:54
3. Adagio. 6:25
4. Allegretto. 9:13
String Quartet No. 12 In D Flat Minorr, Op. 133. (25:41)
5. Moderato. 6:23
6. Allegretto. 19:18
String Quartet No. 14 In F Sharp Major, Op. 142. (26:01)
7. Allegretto. 8:38
8. Adagio. 9:32
9. Allegretto. 7:51
Mandelring Quartett:
Cello – Bernhard Schmidt
Viola – Roland Glassl
Violin – Nanette Schmidt, Sebastian Schmidt
Контейнер: ISO (*.iso)
Тип рипа: image
Разрядность: 64(2,8 MHz/1 Bit)
Формат: DST64
Количество каналов: 5.0, 2.0
Доп. информация: Audite 53384791
Producer Tonmeister Ludger Böckenhoff
recording: April 23 -25, 2008
recording location: Klingenmünster
equipement: Sennheiser MKH 20, MKH 40
Neumann KM I30, KM I34, U87
Brüel & Kjaer 4006
custom-made mic-amps, RME mic-amps
Stax SRM Monitor, Dynaudio Air, ME Geithain RL 906
recording format: pcm, 88 kHz / 24bit
pcm-dsd conversion: Philips AFC, Sigma Delta type D
sacd authoring: Philips SACD creator
Источник (релизер): собственный рип от ehondik
https://www.sa-cd.net/showtitle/5730
https://www.amazon.co.uk/Shostakovich-Complete-String-Quartets-4/dp/B001P9XNHC
Код: Выделить всё
foobar2000 1.3.13 / Замер динамического диапазона (DR) 1.1.1
Дата отчёта:  2019-09-22 20:21:22
--------------------------------------------------------------------------------
Анализ:   Mandelring Quartett / D Shostakovich String Quartets
--------------------------------------------------------------------------------
DR         Пики         RMS           Продолжительность трека
--------------------------------------------------------------------------------
DR11     -21.46 дБ   -40.40 дБ      4:10 01-D.Schostakowitsch: Streichquartett Nr.10, op.118, I.Andante
DR13      -5.97 дБ   -26.96 дБ      3:54 02-II.Allegretto furioso
DR13     -16.77 дБ   -38.24 дБ      6:25 03-III.Adagio
DR16      -7.60 дБ   -34.82 дБ      9:18 04-IV.Allegretto
DR13     -15.26 дБ   -37.11 дБ      6:23 05-D.Schostakowitsch: Streichquartett Nr.12, op.133, I.Moderato
DR15      -7.59 дБ   -32.20 дБ     19:22 06-II.Allegretto
DR15      -7.49 дБ   -34.79 дБ      8:38 07-D.Schostakowitsch: Streichquartett Nr.14, op.142, I.Allegretto
DR14     -13.52 дБ   -37.45 дБ      9:32 08-II.Adagio
DR15      -9.95 дБ   -35.06 дБ      7:51 09-III.Allegretto
--------------------------------------------------------------------------------
Количество треков: 9
Реальные значения DR: DR14
Частота:   2822400 Гц / Частота PCM: 88200 Гц
Каналов:   5
Разрядность:   24
Битрейт:   14112 кбит/с
Кодек:   DST64
================================================================================
--------------------------------------------------------------------------------
Анализ:   Mandelring Quartett / D Shostakovich String Quartets
--------------------------------------------------------------------------------
DR         Пики         RMS           Продолжительность трека
--------------------------------------------------------------------------------
DR11     -20.41 дБ   -37.15 дБ      4:10 01-D.Schostakowitsch: Streichquartett Nr.10, op.118, I.Andante
DR14      -6.04 дБ   -23.68 дБ      3:54 02-II.Allegretto furioso
DR13     -15.25 дБ   -34.92 дБ      6:25 03-III.Adagio
DR17      -6.93 дБ   -31.37 дБ      9:18 04-IV.Allegretto
DR13     -14.48 дБ   -33.89 дБ      6:23 05-D.Schostakowitsch: Streichquartett Nr.12, op.133, I.Moderato
DR15      -8.21 дБ   -28.92 дБ     19:22 06-II.Allegretto
DR15     -10.05 дБ   -31.56 дБ      8:38 07-D.Schostakowitsch: Streichquartett Nr.14, op.142, I.Allegretto
DR14     -13.24 дБ   -34.36 дБ      9:32 08-II.Adagio
DR16      -8.99 дБ   -31.78 дБ      7:51 09-III.Allegretto
--------------------------------------------------------------------------------
Количество треков: 9
Реальные значения DR: DR14
Частота:   2822400 Гц / Частота PCM: 88200 Гц
Каналов:   2
Разрядность:   24
Битрейт:   5645 кбит/с
Кодек:   DST64
================================================================================
Спасибо ehondik за предоставленный рип.
Шостакович / Shostakovich Complete String Quartets (Mandelring Quartett), Vol.1
Шостакович / Shostakovich Complete String Quartets (Mandelring Quartett), Vol.2
Шостакович / Shostakovich Complete String Quartets (Mandelring Quartett), Vol.3
Правила, инструкции, FAQ!!!
Торрент  Добавлен [20 окт 2019, 10:28] Скачать торрент Магнет ссылка
Скачать торрент
68.97 КБ

Статус
Проверен 
 
Размер  3.42 ГБ
Приватный: Нет (DHT включён)
.torrent скачан  2
Как залить торрент? | Как скачать Torrent? | Как смотреть и слушать онлайн?  
Гость
 


Вернуться в Классика и классика в современной обработке (многоканальная музыка)

Кто сейчас на конференции

Сейчас этот форум просматривают: нет зарегистрированных пользователей и гости: 1