[SACD-R][OF] Sir Neville Marriner - Handel - Water Music, Suite Nos.1-3; Music for the Royal Fireworks (Marriner) SACD ISO, 2 (Limited Edition) - 1980-2005 (Classical)


Статистика раздачи
Размер: 3.88 ГБ | Добавлен: 15 сен 2018, 13:46 | Скачали: 6
Сидеров: 28  [0 байт/сек]    Личеров: 11  [0 байт/сек]

Сообщение Гость » 15 сен 2018, 13:46

Sir Neville Marriner, Academy of St Martin in the Fields: Handel
Water Music, Suite Nos.1-3; Music for the Royal Fireworks (SACD ISO) 2004
Формат записи/Источник записи: [SACD-R][OF]
Наличие водяных знаков: Да
Издание: Limited Edition
Год издания/переиздания диска: 1980-2005
Жанр: Classical
Издатель (лейбл): Philips (Decca) EU
Продолжительность: 71:00
Наличие сканов в содержимом раздачи: Да (сканы)
Треклист:
Watermusic
01 - 09 Suite No. 1 F-dur HWV 348
10 - 14 Suite No. 2 D-dur HWV 349
15 - 18 Suite No. 3 G-dur HWV 350
----------------------------------------
Music for the Royal Fireworks
19 - 23 Suite HWV 351
Контейнер: ISO (*.iso)
Тип рипа: image
Разрядность: 64(2,8 MHz/1 Bit)
Формат: DSD
Количество каналов: 5.1
Другие дорожки звука: 5.1 - 2.0
Код: Выделить всё
foobar2000 1.3.19 / Dynamic Range Meter 1.1.1
log date: 2018-07-16 15:28:34
--------------------------------------------------------------------------------
Analyzed: Academy of St Martin in the Fields / Dirigent: Sir Neville Marriner / Händel: Wassermusik & Feuerwerksmusik
--------------------------------------------------------------------------------
DR         Peak         RMS     Duration Track
--------------------------------------------------------------------------------
DR13      -7.71 dB   -30.11 dB      3:37 01-Ouvertüre [Wassermusik, Suite Nr.1]
DR12     -15.89 dB   -36.93 dB      2:34 02-Adagio e staccato [Wassermusik, Suite Nr.1]
DR14      -7.11 dB   -28.45 dB      7:38 03-Allegro. Andante. Allegro [Wassermusik, Suite Nr.1]
DR12      -7.21 dB   -27.73 dB      3:46 04-Passepied [Wassermusik, Suite Nr.1]
DR12     -11.12 dB   -32.29 dB      3:14 05-Air [Wassermusik, Suite Nr.1]
DR12      -7.16 dB   -26.62 dB      3:05 06-Menuett [Wassermusik, Suite Nr.1]
DR12     -16.86 dB   -38.41 dB      1:07 07-Bourrée [Wassermusik, Suite Nr.1]
DR12     -11.67 dB   -33.84 dB      1:18 08-Hornpipe [Wassermusik, Suite Nr.1]
DR12     -13.50 dB   -33.79 dB      4:47 09-Allegro [Wassermusik, Suite Nr.1]
DR12      -7.12 dB   -26.54 dB      2:06 10-Allegro [Wassermusik, Suite Nr.2]
DR12      -7.09 dB   -26.04 dB      4:10 11-Alla Hornpipe [Wassermusik, Suite Nr.2]
DR12      -7.17 dB   -27.27 dB      1:15 12-Menuett [Wassermusik, Suite Nr.2]
DR11      -9.25 dB   -28.97 dB      1:32 13-Lentement [Wassermusik, Suite Nr.2]
DR12      -7.14 dB   -27.52 dB      1:24 14-Bourrée [Wassermusik, Suite Nr.2]
DR12     -11.77 dB   -34.26 dB      2:31 15-Sarabande [Wassermusik, Suite Nr.3]
DR13     -14.49 dB   -35.28 dB      3:29 16-Menuett I/II [Wassermusik, Suite Nr.3]
DR13      -9.29 dB   -32.11 dB      3:01 17-Rigaudon I/II [Wassermusik, Suite Nr.3]
DR11      -7.18 dB   -27.10 dB      1:29 18-Gigue [Wassermusik, Suite Nr.3]
DR13      -6.13 dB   -27.06 dB      8:15 19-Ouvertüre [Feuerwerksmusik]
DR12     -11.69 dB   -33.04 dB      1:36 20-Bourrée [Feuerwerksmusik]
DR12     -11.85 dB   -30.81 dB      3:44 21-La Paix. Largo alla Siciliana [Feuerwerksmusik]
DR12      -6.16 dB   -27.71 dB      2:03 22-La Réjouissance. Allegro [Feuerwerksmusik]
DR13      -6.12 dB   -28.77 dB      3:27 23-Menuett I & II [Feuerwerksmusik]
--------------------------------------------------------------------------------
Number of tracks:  23
Official DR value: DR12
Samplerate:        2822400 Hz / PCM Samplerate: 88200 Hz
Channels:          6
Bits per sample:   1
Bitrate:           16934 kbps
Codec:             DST64
================================================================================
Доп. информация: Ripped by PS3
Источник (релизер): собственный рип
Оркестр: Academy Of St. Martin In The Fields
Композитор: George Frideric Handel
Дирижер: Sir Neville Marriner
SA-CD.net
Правила, инструкции, FAQ!!!
Торрент  Добавлен [15 сен 2018, 13:46] Скачать торрент Магнет ссылка
Скачать торрент
39.63 КБ

Статус
Проверен 
 
Размер  3.88 ГБ
Приватный: Нет (DHT включён)
.torrent скачан  6
Как залить торрент? | Как скачать Torrent? | Как смотреть и слушать онлайн?  
Гость
 


Вернуться в Классика и классика в современной обработке (многоканальная музыка)

Кто сейчас на конференции

Сейчас этот форум просматривают: нет зарегистрированных пользователей и гости: 0