(Symphonic Progressive Rock) [WEB] The Flower Kings - Waiting For Miracles - 2019, FLAC (tracks), lossless


Статистика раздачи
Размер: 528.17 МБ | Добавлен: 09 ноя 2019, 12:40 | Скачали: 1
Сидеров: 36  [0 байт/сек]    Личеров: 11  [0 байт/сек]

Сообщение Гость » 09 ноя 2019, 12:40

The Flower Kings - Waiting For Miracles
Жанр: Symphonic Progressive Rock
Носитель: WEB
Год издания: 2019-11-08
Издатель-лейбл: InsideOutMusic
Страна исполнителя: Sweden
Аудиокодек: FLAC (*.flac)
Тип рипа: tracks
Битрейт аудио: lossless
Продолжительность: 01:24:37
Источник: интернет
Наличие сканов: нет
Треклист:
01. House of Cards (1:56)
02. Black Flag (7:40)
03. Miracles for America (Edit) (9:57)
04. Vertigo (9:59)
05. The Bridge (5:31)
06. Ascending to the Stars (5:41)
07. Wicked Old Symphony (5:47)
08. The Rebel Circus (5:50)
09. Sleep With the Enemy (6:02)
10. The Crowning of Greed (4:49)
Код: Выделить всё
CUE Corrector v. 8.3.5 / b. 935 (Nov. 02, 2019)
————————————————————————————————————————————————————————————————————————
The Flower Kings / Waiting For Miracles
Folder: Disc 1
Audio files:
    01 House of Cards.flac [01:55.947; FLAC • 556 kbps • 16 bit \ 44100 Hz • stereo; 7.70 MB (8 069 529 B)]
    02 Black Flag.flac [07:39.640; FLAC • 906 kbps • 16 bit \ 44100 Hz • stereo; 49.68 MB (52 088 654 B)]
    03 Miracles for America (Edit).flac [09:56.667; FLAC • 958 kbps • 16 bit \ 44100 Hz • stereo; 68.16 MB (71 469 134 B)]
    04 Vertigo.flac [09:59.280; FLAC • 884 kbps • 16 bit \ 44100 Hz • stereo; 63.19 MB (66 262 312 B)]
    05 The Bridge.flac [05:30.720; FLAC • 793 kbps • 16 bit \ 44100 Hz • stereo; 31.28 MB (32 797 555 B)]
    06 Ascending to the Stars.flac [05:40.680; FLAC • 780 kbps • 16 bit \ 44100 Hz • stereo; 31.68 MB (33 222 429 B)]
    07 Wicked Old Symphony.flac [05:46.667; FLAC • 911 kbps • 16 bit \ 44100 Hz • stereo; 37.65 MB (39 477 777 B)]
    08 The Rebel Circus.flac [05:49.560; FLAC • 941 kbps • 16 bit \ 44100 Hz • stereo; 39.24 MB (41 143 913 B)]
    09 Sleep With the Enemy.flac [06:01.933; FLAC • 917 kbps • 16 bit \ 44100 Hz • stereo; 39.59 MB (41 512 557 B)]
    10 The Crowning of Greed.flac [04:48.867; FLAC • 803 kbps • 16 bit \ 44100 Hz • stereo; 27.67 MB (29 015 349 B)]
Accuracy: -m0
File 01 House of Cards              - 100% CDDA [01:55:71]
File 02 Black Flag                  - 100% CDDA [07:39:48]
File 03 Miracles for America (Edit) - 100% CDDA [09:56:50]
File 04 Vertigo                     - 100% CDDA [09:59:21]
File 05 The Bridge                  -  99% CDDA [05:30:54]
File 06 Ascending to the Stars      - 100% CDDA [05:40:51]
File 07 Wicked Old Symphony         - 100% CDDA [05:46:50]
File 08 The Rebel Circus            - 100% CDDA [05:49:42]
File 09 Sleep With the Enemy        -  95% MPEG [06:01:70]
File 10 The Crowning of Greed       - 100% CDDA [04:48:65]
————— Summary: —————
These tracks looks like CDDA with probability 100%.
————————————————————————————————————————————————————————————————————————
ANALYZER:
    auCDtect: CD records authenticity detector, version 0.8.2
    Copyright (c) 2004 Oleg Berngardt. All rights reserved.
    Copyright (c) 2004 Alexander Djourik. All rights reserved.
Time elapsed: 2 m 57 s
Log created at November 08, 2019 03:20:13
=== B0F467099D7895DF290F7D4D2CAA59AA3E471D6BA84632651042B7E9AA9958AE ===
Код: Выделить всё
[CUETools log; Date: 08.11.2019 3:16:04; Version: 2.1.6]
[CTDB TOCID: qGpvQwSNdi0fjwQJ4TeCunlNg_U-] disk not present in database.
[AccurateRip ID: 00187da0-00c565ed-790ecd0a] disk not present in database.
Track Peak [ CRC32  ] [W/O NULL]
 --  100,0 [E2E99F45] [776AD34B]
 01   72,4 [C8730805] [9124DE5A]
 02   94,5 [3BA4DB43] [CEAEB3AF]
 03   94,1 [9737CB30] [FB81FAD8]
 04  100,0 [4E60CBEF] [E5954027]
 05   91,4 [FF677C9F] [4EC08927]
 06   96,5 [2CCB577F] [57096F04]
 07   96,9 [66D91F5A] [5025C449]
 08  100,0 [4E465475] [8510CF38]
 09   97,1 [2AA3AD12] [60874E96]
 10   98,9 [5045A814] [484FEFBC]
Код: Выделить всё
foobar2000 1.4.8 / Замер динамического диапазона (DR) 1.1.1
Дата отчёта:  2019-11-08 03:14:28
--------------------------------------------------------------------------------
Анализ:   The Flower Kings / Waiting For Miracles
--------------------------------------------------------------------------------
DR         Пики         RMS           Продолжительность трека
--------------------------------------------------------------------------------
DR12      -2.80 дБ   -19.83 дБ      1:56 01-House of Cards
DR8       -0.49 дБ   -11.33 дБ      7:40 02-Black Flag
DR8       -0.52 дБ   -10.34 дБ      9:57 03-Miracles for America (Edit)
DR9        0.00 дБ   -11.88 дБ      9:59 04-Vertigo
DR8       -0.78 дБ   -13.13 дБ      5:31 05-The Bridge
DR10      -0.30 дБ   -15.31 дБ      5:41 06-Ascending to the Stars
DR10      -0.27 дБ   -12.92 дБ      5:47 07-Wicked Old Symphony
DR9        0.00 дБ   -11.32 дБ      5:50 08-The Rebel Circus
DR8       -0.25 дБ   -11.60 дБ      6:02 09-Sleep With the Enemy
DR10      -0.09 дБ   -13.34 дБ      4:49 10-The Crowning of Greed
--------------------------------------------------------------------------------
Количество треков: 10
Реальные значения DR: DR9
Частота:   44100 Гц
Каналов:   2
Разрядность:   16
Битрейт:   783 кбит/с
Кодек:   FLAC
================================================================================
01. House Of Cards Reprise (1:21)
02. Spirals (5:06)
03. Steampunk (6:31)
04. We Were Always Here (7:35)
05. Busking at Brobank (0:52)
Код: Выделить всё
CUE Corrector v. 8.3.5 / b. 935 (Nov. 02, 2019)
————————————————————————————————————————————————————————————————————————
The Flower Kings / Waiting For Miracles
Folder: Disc 2
Audio files:
    01 House Of Cards Reprise.flac [01:21.373; FLAC • 779 kbps • 16 bit \ 44100 Hz • stereo; 7.56 MB (7 929 482 B)]
    02 Spirals.flac [05:06.240; FLAC • 837 kbps • 16 bit \ 44100 Hz • stereo; 30.56 MB (32 047 765 B)]
    03 Steampunk.flac [06:30.867; FLAC • 917 kbps • 16 bit \ 44100 Hz • stereo; 42.76 MB (44 832 740 B)]
    04 We Were Always Here.flac [07:35.320; FLAC • 868 kbps • 16 bit \ 44100 Hz • stereo; 47.12 MB (49 404 457 B)]
    05 Busking at Brobank.flac [00:52.013; FLAC • 699 kbps • 16 bit \ 44100 Hz • stereo; 4.34 MB (4 550 860 B)]
Accuracy: -m0
File 01 House Of Cards Reprise - 100% CDDA [01:21:28]
File 02 Spirals                - 100% CDDA [05:06:18]
File 03 Steampunk              - 100% CDDA [06:30:65]
File 04 We Were Always Here    - 100% CDDA [07:35:24]
File 05 Busking at Brobank     - 100% CDDA [00:52:01]
————— Summary: —————
These tracks looks like CDDA with probability 100%.
————————————————————————————————————————————————————————————————————————
ANALYZER:
    auCDtect: CD records authenticity detector, version 0.8.2
    Copyright (c) 2004 Oleg Berngardt. All rights reserved.
    Copyright (c) 2004 Alexander Djourik. All rights reserved.
Time elapsed: 1 m 05 s
Log created at November 08, 2019 03:18:12
=== 717DC5633C95DABE666428AB8F93A71F5724B83C336A0A3BB13934477B1C03DE ===
Код: Выделить всё
[CUETools log; Date: 08.11.2019 3:16:25; Version: 2.1.6]
[CTDB TOCID: r04Ae5z4g6h0EGjBkwyR4Yxyxlc-] found.
Track | CTDB Status
  1   | (2/2) Accurately ripped
  2   | (2/2) Accurately ripped
  3   | (2/2) Accurately ripped
  4   | (2/2) Accurately ripped
  5   | (2/2) Accurately ripped
[AccurateRip ID: 00044fa3-0014f82f-3b050505] disk not present in database.
Track Peak [ CRC32  ] [W/O NULL]
 --  100,0 [9ABAB17F] [45AD23F0]
 01   87,8 [928E94F0] [E9EDB4AF]
 02  100,0 [2E3E156E] [0553D3A6]
 03  100,0 [6C303C42] [597C3D4A]
 04   98,3 [9D86F304] [5C66CAB9]
 05   40,3 [6852FCA1] [EC9398EE]
Код: Выделить всё
foobar2000 1.4.8 / Замер динамического диапазона (DR) 1.1.1
Дата отчёта:  2019-11-08 03:14:32
--------------------------------------------------------------------------------
Анализ:   The Flower Kings / Waiting For Miracles
--------------------------------------------------------------------------------
DR         Пики         RMS           Продолжительность трека
--------------------------------------------------------------------------------
DR8       -1.12 дБ   -12.59 дБ      1:21 01-House Of Cards Reprise
DR11       0.00 дБ   -15.69 дБ      5:06 02-Spirals
DR8        0.00 дБ   -11.12 дБ      6:31 03-Steampunk
DR8       -0.15 дБ   -11.90 дБ      7:35 04-We Were Always Here
DR10      -7.89 дБ   -22.92 дБ      0:52 05-Busking at Brobank
--------------------------------------------------------------------------------
Количество треков: 5
Реальные значения DR: DR9
Частота:   44100 Гц
Каналов:   2
Разрядность:   16
Битрейт:   584 кбит/с
Кодек:   FLAC
================================================================================
Правила, инструкции, FAQ!!!
Торрент  Добавлен [09 ноя 2019, 12:40] Скачать торрент Магнет ссылка
Скачать торрент
11.71 КБ

Статус
Проверен 
 
Размер  528.17 МБ
Приватный: Нет (DHT включён)
.torrent скачан  1
Как залить торрент? | Как скачать Torrent? | Как смотреть и слушать онлайн?  
Гость
 


Вернуться в Progressive & Art-Rock

Кто сейчас на конференции

Сейчас этот форум просматривают: нет зарегистрированных пользователей и гости: 0