[SACD-R][OF] Telarc Classical SACD Sampler II (Various) - 2003 (Classical)


Статистика раздачи
Размер: 3.97 ГБ | Добавлен: 20 окт 2019, 10:27 | Скачали: 3
Сидеров: 26  [0 байт/сек]    Личеров: 8  [0 байт/сек]

Сообщение Гость » 20 окт 2019, 10:27

Telarc Classical SACD Sampler II
Формат записи/Источник записи: [SACD-R][OF]
Наличие водяных знаков: Нет
Год издания/переиздания диска: 2003
Жанр: Classical
Издатель (лейбл): Telarc
Продолжительность: 01:06:10
Наличие сканов в содержимом раздачи: Только обложка альбома
Контейнер: ISO (*.iso)
Тип рипа: image
Разрядность: 64(2,8 MHz/1 Bit)
Формат: DST64
Количество каналов: 5.1, 2.0
Доп. информация: Telarc ‎– SACD-60007
Источник (релизер): собственный рип от ehondik
https://www.sa-cd.net/showtitle/1470
https://www.amazon.com/Telarc-Classical-Sacd-Sampler-2/dp/B0000DG01S
Треклист:
1. Rondeau: From Abdelazer 2:14
Composed by Henry Purcell
The Empire Brass Quintet
Organ – William Kuhlman

2. Death Of Tybalt: From Romeo And Juliet, Suite 1, Op. 64A 4:30
Composed by Sergei Prokofiev
Pavvo Jarvi
Cincinnati Symphony Orchestra

3. Rainbow Body 12:56
Composed by Christopher Theofanidis
Roberto Spano
Atlanta Symphony Orchestra

4. Malaguena: From Andalucia, Suite Espagnole 4:52
Composed by Ernesto Lecuona
Harp – Yolanda Kondonassis
5. Surge, Propera Amica Mea: From Canticum Canticorum 2:16
Tapestry Chorus
6. Double Fugue - Moderato Maestoso: From Mysterious Mountain, Op. 132 5:52
Composed by Alan Hovhaness
Gerard Schwarz
Royal Liverpool Philharmonic Orchestra

7. Presto - Allegro Assai: From Symphony No. 9 (Excerpt) 3:36
Composed by Ludwig van Beethoven
Chorus – Atlanta Symphony Chorus
Atlanta Symphony Orchestra
Donald Runnicles

8. Parade Of The Charioteers: From Ben Hur 3:27
Erich Kunzel
Cincinnati Pops Orchestra

9. String Of Pearls 3:36
Erich Kunzel
Cincinnati Pops Orchestra

10. Allegro Vivace: From Holberg Suite 2:46
Composed by Edvard Grieg
Conrad van Alphen
Rotterdam Chamber Orchestra

11. La Rejouissance: From Music For The Royal Fireworks, HWV 351 1:58
Composed by Georg Friedrich Händel
Martin Pearlman
Boston Baroque

12. Finale: Allegro Moderato: From Symphony No. 6 (Excerpt) 5:19
Composed by Gustav Mahler
Benjamin Zander
Philharmonia Orchestra

13. Infernal Dance Of King Katschei: From The Firebird Suite 4:03
Composed by Igor Stravinsky
Paavo Järvi
Cincinnati Symphony Orchestra

14. End Theme: From Sleepy Hollow3:45
Erich Kunzel
Cincinnati Pops Orchestra

15. Scollay's Reel / King Of The Fairies / Old Grey Cat / The Dance Goes On 4:56
Ensemble Galilei
Код: Выделить всё
foobar2000 1.3.13 / Замер динамического диапазона (DR) 1.1.1
Дата отчёта:  2019-09-19 18:54:40
--------------------------------------------------------------------------------
Анализ:   Various / Classical SACD Sampler II
--------------------------------------------------------------------------------
DR         Пики         RMS           Продолжительность трека
--------------------------------------------------------------------------------
DR10      -5.80 дБ   -24.21 дБ      2:14 01-Henry Purcell: Rondeau from Abdelazer
DR15      -3.80 дБ   -27.04 дБ      4:30 02-Sergei Prokofiev: Death of Tybalt from Romeo and Juliet, Suite 1, Op. 64A
DR18      -2.58 дБ   -31.15 дБ     12:57 03-Christopher Theofanidis: Rainbow Body
DR13      -6.93 дБ   -29.15 дБ      4:52 04-Ernesto Lecuona: Malagueсa from Andalucia, Suite Espagnole
DR11     -11.87 дБ   -31.90 дБ      2:16 05-Surge, propera amica mea from Canticum Canticorum
DR14      -4.43 дБ   -26.56 дБ      5:50 06-Alan Hovhaness: Double fugue - moderato maestoso from Mysterious Mountain, Op. 132
DR13      -3.60 дБ   -26.29 дБ      3:37 07-Ludwig van Beeethoven: Presto - Allegro assai from Symphony No. 9 (excerpt)
DR14      -3.09 дБ   -23.82 дБ      3:26 08-Parade of the Charioteers from Ben Hur
DR14      -6.69 дБ   -27.65 дБ      3:35 09-String of Pearls
DR12      -9.65 дБ   -29.54 дБ      2:46 10-Edvard Grieg: Allegro vivace from Holberg Suite
DR12      -5.43 дБ   -24.55 дБ      1:58 11-George Frideric Handel: La Rйjouissance from Music for the Royal Fireworks, HWV 351
DR15      -3.20 дБ   -30.96 дБ      5:19 12-Gustav Mahler: Finale: Allegro moderato from Symphony No. 6 (excerpt)
DR16      -3.71 дБ   -27.97 дБ      4:03 13-Igor Stravinsky: Infernal Dance of King Kastchei from the Firebird Suite
DR12      -4.39 дБ   -23.84 дБ      3:46 14-End Theme from Sleepy Hollow
DR15      -6.93 дБ   -29.70 дБ      4:56 15-Scollay's Reel / King of the Fairies / Old Grey Cat / The Dance Goes On
--------------------------------------------------------------------------------
Количество треков: 15
Реальные значения DR: DR14
Частота:   2822400 Гц / Частота PCM: 88200 Гц
Каналов:   6
Разрядность:   24
Битрейт:   16934 кбит/с
Кодек:   DST64
================================================================================
--------------------------------------------------------------------------------
Анализ:   Various / Classical SACD Sampler II
--------------------------------------------------------------------------------
DR         Пики         RMS           Продолжительность трека
--------------------------------------------------------------------------------
DR12      -7.80 дБ   -23.29 дБ      2:14 01-Henry Purcell: Rondeau from Abdelazer
DR15      -3.42 дБ   -23.04 дБ      4:31 02-Sergei Prokofiev: Death of Tybalt from Romeo and Juliet, Suite 1, Op. 64A
DR17      -3.26 дБ   -27.95 дБ     12:56 03-Christopher Theofanidis: Rainbow Body
DR12      -8.92 дБ   -27.48 дБ      4:53 04-Ernesto Lecuona: Malagueсa from Andalucia, Suite Espagnole
DR12     -11.41 дБ   -29.75 дБ      2:17 05-Surge, propera amica mea from Canticum Canticorum
DR14      -3.97 дБ   -22.99 дБ      5:52 06-Alan Hovhaness: Double fugue - moderato maestoso from Mysterious Mountain, Op. 132
DR13      -3.99 дБ   -23.37 дБ      3:37 07-Ludwig van Beeethoven: Presto - Allegro assai from Symphony No. 9 (excerpt)
DR14      -4.48 дБ   -22.62 дБ      3:27 08-Parade of the Charioteers from Ben Hur
DR13      -7.58 дБ   -24.25 дБ      3:35 09-String of Pearls
DR12      -9.52 дБ   -27.71 дБ      2:47 10-Edvard Grieg: Allegro vivace from Holberg Suite
DR13      -6.19 дБ   -21.80 дБ      1:57 11-George Frideric Handel: La Rйjouissance from Music for the Royal Fireworks, HWV 351
DR15      -4.13 дБ   -27.75 дБ      5:19 12-Gustav Mahler: Finale: Allegro moderato from Symphony No. 6 (excerpt)
DR16      -2.60 дБ   -23.67 дБ      4:03 13-Igor Stravinsky: Infernal Dance of King Kastchei from the Firebird Suite
DR12      -3.48 дБ   -21.46 дБ      3:46 14-End Theme from Sleepy Hollow
DR14     -11.08 дБ   -29.59 дБ      4:56 15-Scollay's Reel / King of the Fairies / Old Grey Cat / The Dance Goes On
--------------------------------------------------------------------------------
Количество треков: 15
Реальные значения DR: DR14
Частота:   2822400 Гц / Частота PCM: 88200 Гц
Каналов:   2
Разрядность:   24
Битрейт:   5645 кбит/с
Кодек:   DST64
================================================================================
Спасибо ehondik за предоставленный рип.
Правила, инструкции, FAQ!!!
Торрент  Добавлен [20 окт 2019, 10:27] Скачать торрент Магнет ссылка
Скачать торрент
80 КБ

Статус
Проверен 
 
Размер  3.97 ГБ
Приватный: Нет (DHT включён)
.torrent скачан  3
Как залить торрент? | Как скачать Torrent? | Как смотреть и слушать онлайн?  
Гость
 


Вернуться в Классика и классика в современной обработке (многоканальная музыка)

Кто сейчас на конференции

Сейчас этот форум просматривают: нет зарегистрированных пользователей и гости: 0