V/A Flow Festival 2019 [2019, Gothic Rock, R&B, Electronic, Iindie Rock, Funk, HDTV, 720p]


Статистика раздачи
Размер: 5.23 ГБ | Добавлен: 20 окт 2019, 11:44 | Скачали: 0
Сидеров: 0  [0 байт/сек]    Личеров: 0  [0 байт/сек]

Сообщение Гость » 20 окт 2019, 11:44

V/A Flow Festival 2019
Жанр: Gothic Rock, R&B, Electronic, Iindie Rock, Funk
Продолжительность: 01:00:05
Год выпуска: 2019
Канал: By
Режиссёр : Kimmo Kajasto
Описание: 09-11.08.2019 На Flow выступают как легенды сцены, так и многообещающие новички. Стилевой диапазон охватывает пространство от инди-рока и хип-хопа до авангардного джаза и андеграундного техно. Без внимания не остается африканский вайб, экспериментальная и современная академическая музыка. Ежегодно на Flow работает от 10 до 12 площадок: главная сцена фестиваля принимает до 25 000 гостей, а некоторые пространства рассчитаны всего на несколько сотен меломанов.
Участники:
The Cure
Blood Orange
The Holy
Maustetytöt
James Blake
Jesse Markin
Father John Misty
BCUC
Качество: HDTV, SAT
Разрешение видео/развертка: 720p
Контейнер: *.ts
Видео кодек: H.264
Аудио кодек: MP2
Видео: AVC, 1280х720 (16/9), 50,000 fps, 11.1 Mb/s
Аудио 1: MPEG, 192 Kbps, 48 KHz, 2.0 channels
Аудио 2: MPEG, 192 Kbps, 48 KHz, 2.0 channels
Аудио 3: MPEG, 192 Kbps, 48 KHz, 2.0 channels
Аудио 4: MPEG, 192 Kbps, 48 KHz, 2.0 channels
Запись видео:
Программа корректировки и конвертации видео: VideoReDo TVSuite ver. 5.1.1.719
Код: Выделить всё
General
ID                             : 1 (0x1)
Complete name                  : D:\Mega\Flow Festival 2019 - arte HD.ts
Format                         : MPEG-TS
File size                      : 5.23 GiB
Duration                       : 1 h 0 min
Overall bit rate mode          : Variable
Overall bit rate               : 12.5 Mb/s
Video
ID                             : 5111 (0x13F7)
Menu ID                        : 10302 (0x283E)
Format                         : AVC
Format/Info                    : Advanced Video Codec
Format profile                 : High@L4
Format settings, CABAC         : Yes
Format settings, RefFrames     : 4 frames
Codec ID                       : 27
Duration                       : 1 h 0 min
Bit rate                       : 11.1 Mb/s
Width                          : 1 280 pixels
Height                         : 720 pixels
Display aspect ratio           : 16:9
Frame rate                     : 50.000 FPS
Color space                    : YUV
Chroma subsampling             : 4:2:0
Bit depth                      : 8 bits
Scan type                      : Progressive
Bits/(Pixel*Frame)             : 0.240
Stream size                    : 4.65 GiB (89%)
Audio #1
ID                             : 5112 (0x13F8)
Menu ID                        : 10302 (0x283E)
Format                         : MPEG Audio
Format version                 : Version 1
Format profile                 : Layer 2
Codec ID                       : 3
Duration                       : 1 h 0 min
Bit rate mode                  : Constant
Bit rate                       : 192 kb/s
Channel(s)                     : 2 channels
Sampling rate                  : 48.0 kHz
Compression mode               : Lossy
Delay relative to video        : -100 ms
Stream size                    : 82.5 MiB (2%)
Language                       : German
Audio #2
ID                             : 5113 (0x13F9)
Menu ID                        : 10302 (0x283E)
Format                         : MPEG Audio
Format version                 : Version 1
Format profile                 : Layer 2
Codec ID                       : 3
Duration                       : 1 h 0 min
Bit rate mode                  : Constant
Bit rate                       : 192 kb/s
Channel(s)                     : 2 channels
Sampling rate                  : 48.0 kHz
Compression mode               : Lossy
Delay relative to video        : -100 ms
Stream size                    : 82.5 MiB (2%)
Language                       : French
Audio #3
ID                             : 5114 (0x13FA)
Menu ID                        : 10302 (0x283E)
Format                         : MPEG Audio
Format version                 : Version 1
Format profile                 : Layer 2
Codec ID                       : 3
Duration                       : 1 h 0 min
Bit rate mode                  : Constant
Bit rate                       : 192 kb/s
Channel(s)                     : 2 channels
Sampling rate                  : 48.0 kHz
Compression mode               : Lossy
Delay relative to video        : -100 ms
Stream size                    : 82.5 MiB (2%)
Language                       : Multiple languages
Audio #4
ID                             : 5115 (0x13FB)
Menu ID                        : 10302 (0x283E)
Format                         : MPEG Audio
Format version                 : Version 1
Format profile                 : Layer 2
Codec ID                       : 3
Duration                       : 1 h 0 min
Bit rate mode                  : Constant
Bit rate                       : 192 kb/s
Channel(s)                     : 2 channels
Sampling rate                  : 48.0 kHz
Compression mode               : Lossy
Delay relative to video        : -100 ms
Stream size                    : 82.5 MiB (2%)
Other
ID                             : 5116 (0x13FC)-100
Menu ID                        : 10302 (0x283E)
Format                         : Teletext
Language                       : German
Правила, инструкции, FAQ!!!
Торрент  Добавлен [20 окт 2019, 11:44] Скачать торрент Магнет ссылка
Скачать торрент
13.53 КБ

Статус
Проверен 
 
Размер  5.23 ГБ
Приватный: Нет (DHT включён)
.torrent скачан  0
Как залить торрент? | Как скачать Torrent? | Как смотреть и слушать онлайн?  
Гость
 


Вернуться в Концерты (HD-Video)

Кто сейчас на конференции

Сейчас этот форум просматривают: нет зарегистрированных пользователей и гости: 1