VA - 1-ый танцевальный (2011) [FLAC|Lossless]<Pop, Dance>


Статистика раздачи
Размер: 703.33 МБ | Добавлен: 21 дек 2014, 02:05 | Скачали: 0
Сидеров: 1  [0 байт/сек]    Личеров: 212  [0 байт/сек]

Сообщение Гость » 21 дек 2014, 02:05

VA - 1-ый танцевальный (2011)



Год:
2011
Жанр: Pop, Dance
Продолжительность: 01:29:33

Кодек: FLAC
Тип рипа: image + .cue
Битрейт: Lossless
Трек лист:
01. ЛАВИКА - Качели [ 02:51 ]
02. CLAUDIA PAVEL feat. FATMAN SCOOP - Just a little beat (European radio version) [ 03:38 ]
03. ДЖИГАН и ЮЛИЯ САВИЧЕВА - Отпусти [ 03:08 ]
04. OPUS - Live is life (DJ Fisun mix) [ 02:47 ]
05. ПОТАП и НАСТЯ - Чумачечая весна [ 02:58 ]
06. DUCK SAUCE - Barbra Streisand [ 02:51 ]
07. ВЕРА БРЕЖНЕВА - Любовь спасет мир (Vengerov & Federoff remix) [ 03:34 ]
08. ASHKAN & KOOSHAN - Dooset daram, dooset daram [ 03:20 ]
09. HI-FI - Я там [ 03:19 ]
10. FIDEL WICKED - Wicked angel [ 02:46 ]
11. ALYOSHA - Феромоны любви [ 03:15 ]
12. DJ ANTONIO - Copy and paste [ 02:29 ]
13. ALEXANDRA STAN - Lollypop (Param Pam Pam) [ 03:05 ]
14. МАРСЕЛЬ - Пропавшие без вести (remix) [ 03:23 ]
15. NAGUALE - Get up [ 03:18 ]
16. DEEPSIDE DEELAYS - Never be alone [ 02:45 ]
17. DJ FISUN - Melody [ 02:26 ]
18. ВИА ГРА - Пошел вон [ 03:24 ]
19. MOVE TOWN - Girl you know its true [ 03:18 ]
20. ЯЖЕВИКА - Галлюциногенный [ 03:05 ]
21. GABRY PONTE + DJS FROM MARS + BELANY & SPADA - Que pasa [ 02:59 ]
22. DJ ROMEO & ANTON LISS - Rusi Hindi (Bhai Bhai) Руси Хинди (Бхай Бхай) [ 03:06 ]
23. КАРИНА КРИТ - Моя Москва [ 02:58 ]
24. 23:45 5IVESTA - Любовь без обмана [ 03:07 ]
25. СЛАВА - Одиночество-сука (remix) [ 02:53 ]
26. ЭЛЬДАР ДАЛГАТОВ - Обманула [ 03:06 ]
27. MC ZALY - Жить лишь в кайф [ 02:34 ]
28. MAXIMA - Алло [ 03:17 ]
29. ЛАВИКА - Вечный рай (DJ Melloffon radio edit) [ 03:39 ]
Код:
Код: Выделить всё
Exact Audio Copy V1.0 beta 1 from 15. November 2010

Отчёт EAC об извлечении, выполненном 21. июля 2011, 19:55

Various / 1-ый танцевальный

Дисковод: ASUS    DRW-24B3ST   Adapter: 0  ID: 1

Режим чтения                 : Достоверность
Использование точного потока : Да
Отключение кэша аудио        : Да
Использование указателей C2  : Нет

Коррекция смещения при чтении                     : 6
Способность читать области Lead-in и Lead-out     : Нет
Заполнение пропущенных сэмплов тишиной            : Да
Удаление блоков с тишиной в начале и конце        : Нет
При вычислениях CRC использовались нулевые сэмплы : Да
Интерфейс                                         : Установленный внешний ASPI-интерфейс

Выходной формат          : Пользовательский кодировщик
Выбранный битрейт        : 768 kBit/s
Качество                 : Высокий
Добавление ID3-тэга      : Нет
Утилита сжатия           : C:\Program Files\Exact Audio Copy\Flac\flac.exe
Дополнительные параметры :  -T "DATE=%y" -T "GENRE=%m" -8 -V %s

TOC извлечённого CD

     Трек |   Старт  | Длительность | Начальный сектор | Конечный сектор
    ---------------------------------------------------------------------
       1  |  0:00.00 |    2:51.20   |           0      |      12844
       2  |  2:51.20 |    3:38.43   |       12845      |      29237
       3  |  6:29.63 |    3:08.03   |       29238      |      43340
       4  |  9:37.66 |    2:47.25   |       43341      |      55890
       5  | 12:25.16 |    2:58.55   |       55891      |      69295
       6  | 15:23.71 |    2:51.18   |       69296      |      82138
       7  | 18:15.14 |    3:34.71   |       82139      |      98259
       8  | 21:50.10 |    3:20.53   |       98260      |     113312
       9  | 25:10.63 |    3:19.47   |      113313      |     128284
      10  | 28:30.35 |    2:46.55   |      128285      |     140789
      11  | 31:17.15 |    3:15.07   |      140790      |     155421
      12  | 34:32.22 |    2:29.50   |      155422      |     166646
      13  | 37:01.72 |    3:05.30   |      166647      |     180551
      14  | 40:07.27 |    3:23.49   |      180552      |     195825
      15  | 43:31.01 |    3:18.41   |      195826      |     210716
      16  | 46:49.42 |    2:45.33   |      210717      |     223124
      17  | 49:35.00 |    2:26.30   |      223125      |     234104
      18  | 52:01.30 |    3:24.18   |      234105      |     249422
      19  | 55:25.48 |    3:18.34   |      249423      |     264306
      20  | 58:44.07 |    3:05.57   |      264307      |     278238
      21  | 61:49.64 |    2:59.34   |      278239      |     291697
      22  | 64:49.23 |    3:06.09   |      291698      |     305656
      23  | 67:55.32 |    2:58.65   |      305657      |     319071
      24  | 70:54.22 |    3:07.39   |      319072      |     333135
      25  | 74:01.61 |    2:53.32   |      333136      |     346142
      26  | 76:55.18 |    3:06.27   |      346143      |     360119
      27  | 80:01.45 |    2:34.17   |      360120      |     371686
      28  | 82:35.62 |    3:17.39   |      371687      |     386500
      29  | 85:53.26 |    3:39.61   |      386501      |     402986

Характеристики диапазона извлечения и сообщения об ошибках

Выбранный диапазон

     Имя файла D:\Winamp\Various - 1-ый танцевальный.wav

     Пиковый уровень 98.7 %
0.2 X
     Качество диапазона 100.0 %
     CRC теста FB4E2C16
     CRC копии FB4E2C16
     Копирование... OK

Ошибок не произошло

AccurateRip: сводка

Трек  1  нет в базе данных
Трек  2  нет в базе данных
Трек  3  нет в базе данных
Трек  4  нет в базе данных
Трек  5  нет в базе данных
Трек  6  нет в базе данных
Трек  7  нет в базе данных
Трек  8  нет в базе данных
Трек  9  нет в базе данных
Трек 10  нет в базе данных
Трек 11  нет в базе данных
Трек 12  нет в базе данных
Трек 13  нет в базе данных
Трек 14  нет в базе данных
Трек 15  нет в базе данных
Трек 16  нет в базе данных
Трек 17  нет в базе данных
Трек 18  нет в базе данных
Трек 19  нет в базе данных
Трек 20  нет в базе данных
Трек 21  нет в базе данных
Трек 22  нет в базе данных
Трек 23  нет в базе данных
Трек 24  нет в базе данных
Трек 25  нет в базе данных
Трек 26  нет в базе данных
Трек 27  нет в базе данных
Трек 28  нет в базе данных
Трек 29  нет в базе данных

Ни одного трека нет в базе AccurateRip

Конец отчёта
Код:
Код: Выделить всё
-----------------------

DON'T MODIFY THIS FILE

-----------------------

PERFORMER: auCDtect Task Manager, ver. 1.5.1RC3 build 1.5.1.4
Copyright (c) 2008-2010 y-soft. All rights reserved
http:/y-soft.org

ANALYZER: auCDtect: CD records authenticity detector, version 0.8.2
Copyright (c) 2004 Oleg Berngardt. All rights reserved.
Copyright (c) 2004 Alexander Djourik. All rights reserved.

FILE: Various - 1-ый танцевальный.flac
  Size: 704420004 Hash: 547B9C26AC2CEBE4AA34F47DD1DB9966 Accuracy: -m0
  Conclusion: CDDA 100%
  Signature: 430C5E9D381D6D870B5D83A79E925DCFB4F4F3BD
Правила, инструкции, FAQ!!!
Торрент  Добавлен [21 дек 2014, 02:05] Скачать торрент Магнет ссылка
Скачать торрент
15.03 КБ

Статус
Проверен 
 
Размер  703.33 МБ
Приватный: Нет (DHT включён)
.torrent скачан  0
Как залить торрент? | Как скачать Torrent? | Как смотреть и слушать онлайн?  
Гость
 


Вернуться в Отечественная музыка (сборники)

Кто сейчас на конференции

Сейчас этот форум просматривают: нет зарегистрированных пользователей и гости: 0