Вечная смелость любви / Love's Everlasting Courage [2011, вестерн, DVDRip] [DVO]+[Original Eng]


Статистика раздачи
Размер: 1.37 ГБ | Добавлен: 08 ноя 2012, 20:37 | Скачали: 1
Сидеров: 0  [0 байт/сек]    Личеров: 4  [0 байт/сек]

Сообщение Гость » 08 ноя 2012, 20:37

Страна: США
Жанр: Вестерн
Год выпуска: 2011
Продолжительность: 01:28:03
Перевод: Любительский (двухголосый закадровый)
Cубтитры: нет
Оригинальная аудиодорожка: английский
Режиссер: Брэдфорд Мэй / Bradford May

В ролях: Уэс Браун, Морган Лили, Шерил Лэдд, Джули Монд, Уиллоу Гир, Тайлер Мур, Кирк Б.Р. Уоллер, Джеймс Экхаус, Кортни Мармо, Брюс Бокслайтнер

Описание: Кларк Дэвис изо всех сил пытается заботиться о своей земле и поддерживать семью во время долгой засухи. Чтобы вернуть банку деньги, его жена Эллен начинает работать в городе швеей, но вскоре заболевает скарлатиной. Опустошенный из-за умирающей любимой жены, Кларк со своей дочерью Мисси обращается за помощью к своим родителям Ирен и Ллойду. Кларк должен найти способ спасти ферму и пережить смерть Эллен, при этом не потеряв самого любимого человека — свою дочь.




Качество видео: DVDRip
Формат видео: AVI
Видео: XVID; 704x400; 16:9; 23,976 fps; 1834 kbps
Аудио 1: Russian (MP3, 2 ch, 192 kbps)
Аудио 2: English (AC3, 2 ch, 192 kbps)
Общее
Полное имя : F:Loves.Everlasting.Courage.2011.DVDRip.avi
Формат : AVI
Формат/Информация : Audio Video Interleave
Размер файла : 1,37 Гбайт
Продолжительность : 1 ч. 28 м.
Общий поток : 2232 Кбит/сек
Программа кодирования : VirtualDubMod 1.5.10.3 | (build 2550/release)
Библиотека кодирования : VirtualDubMod build 2550/release
Видео
Идентификатор : 0
Формат : MPEG-4 Visual
Профиль формата : Advanced Simple@L5
Параметр BVOP формата : 2
Параметр QPel формата : Нет
Параметр GMC формата : Без точки перехода
Параметр матрицы формата : Default (MPEG)
Идентификатор кодека : XVID
Идентификатор кодека/Подсказка : XviD
Продолжительность : 1 ч. 28 м.
Битрейт : 1834 Кбит/сек
Ширина : 704 пикс.
Высота : 400 пикс.
Соотношение сторон : 16:9
Частота кадров : 23,976 кадр/сек
Цветовое пространство : YUV
Подвыборка цветности : 4:2:0
Битовая глубина : 8 бит
Тип развёртки : Прогрессивная
Метод сжатия : С потерями
Бит/(Пиксели*Кадры) : 0.272
Размер потока : 1,13 Гбайт (82%)
Библиотека кодирования : XviD 1.2.1 (UTC 2008-12-04)
Аудио #1
Идентификатор : 1
Формат : MPEG Audio
Версия формата : Version 1
Профиль формата : Layer 3
Идентификатор кодека : 55
Идентификатор кодека/Подсказка : MP3
Продолжительность : 1 ч. 27 м.
Вид битрейта : Постоянный
Битрейт : 192 Кбит/сек
Каналы : 2 канала
Частота : 44,1 КГц
Метод сжатия : С потерями
Размер потока : 121 Мбайт (9%)
Выравнивание : Разделение по промежуткам
Продолжительность промежутка : 42 мс. (1,00 видеокадр)
Время предзагрузки промежутка : 500 ms
Аудио #2
Идентификатор : 2
Формат : MPEG Audio
Версия формата : Version 1
Профиль формата : Layer 3
Идентификатор кодека : 55
Идентификатор кодека/Подсказка : MP3
Продолжительность : 1 ч. 27 м.
Вид битрейта : Постоянный
Битрейт : 192 Кбит/сек
Каналы : 2 канала
Частота : 48,0 КГц
Метод сжатия : С потерями
Размер потока : 121 Мбайт (9%)
Выравнивание : Разделение по промежуткам
Продолжительность промежутка : 42 мс. (1,00 видеокадр)
Время предзагрузки промежутка : 500 ms
Библиотека кодирования : LAMELAME_MAJOR_VERSI


Правила, инструкции, FAQ!!!
Торрент  Добавлен [08 ноя 2012, 20:37] Скачать торрент Магнет ссылка
Скачать торрент
14.59 КБ

Статус
Проверен Admin (08 ноя 2012, 21:25)
 
Размер  1.37 ГБ
Приватный: Нет (DHT включён)
.torrent скачан  1
Как залить торрент? | Как скачать Torrent? | Как смотреть и слушать онлайн?  
Гость
 


Вернуться в Вестерн

Кто сейчас на конференции

Сейчас этот форум просматривают: нет зарегистрированных пользователей и гости: 0